<?xml version="1.0" standalone="no"?>
<!DOCTYPE svg PUBLIC "-//W3C//DTD SVG 1.1//EN" "http://www.w3.org/Graphics/SVG/1.1/DTD/svg11.dtd" >
<svg xmlns="http://www.w3.org/2000/svg">
<metadata>
<json>
<![CDATA[
{
	"fontFamily": "ZenIcon",
	"fontURL": "https://zui.sexy/#control-icons",
	"description": "base on fontawesome\nFont generated by IcoMoon.",
	"majorVersion": 2,
	"minorVersion": 3,
	"version": "Version 2.3",
	"fontId": "ZenIcon",
	"psName": "ZenIcon",
	"subFamily": "Regular",
	"fullName": "ZenIcon"
}
]]>
</json>
</metadata>
<defs>
<font id="ZenIcon" horiz-adv-x="1024">
<font-face units-per-em="1024" ascent="881.7221135029354" descent="-142.27788649706457" />
<missing-glyph horiz-adv-x="1024" />
<glyph unicode="&#x20;" horiz-adv-x="513.0019569471624" d="" />
<glyph unicode="&#xd7;" glyph-name="icon-times" data-tags="icon1-52" horiz-adv-x="805" d="M804.206 722.139l-50.871 51.712-350.61-356.608-351.488 357.522-50.871-51.712 351.525-357.522-351.159-357.157 50.834-51.712 351.159 357.157 350.281-356.242 50.834 51.712-350.245 356.242z" />
<glyph unicode="&#xe603;" glyph-name="icon-search" data-tags="icon1-82" horiz-adv-x="951" d="M365.714 728.759c161.317 0 292.571-131.255 292.571-292.571s-131.255-292.571-292.571-292.571-292.571 131.255-292.571 292.571 131.255 292.571 292.571 292.571zM365.714 801.901c-201.984 0-365.714-163.73-365.714-365.714s163.73-365.714 365.714-365.714c201.984 0 365.714 163.73 365.714 365.714s-163.73 365.714-365.714 365.714v0zM604.742 250.239l344.787-344.787-51.719-51.719-344.787 344.787 51.719 51.719z" />
<glyph unicode="&#xe604;" glyph-name="icon-envelope" data-tags="icon1-47" horiz-adv-x="951" d="M0 730.404v-658.286h950.857v658.286h-950.857zM811.41 657.261l-335.982-291.511-335.945 291.511h671.927zM73.143 145.261v472.722l402.286-349.111 402.286 349.111v-472.722h-804.571z" />
<glyph unicode="&#xe605;" glyph-name="icon-heart" data-tags="icon-21" d="M774.29 730.953c97.17 0 176.201-82.615 176.201-184.21 0-52.809-21.979-103.205-60.27-138.35l-1.207-1.134-1.17-1.17-375.625-377.234-378.441 379.575c-38.327 35.109-60.27 85.541-60.27 138.35 0 101.559 79.031 184.21 176.201 184.21 46.19 0 89.856-18.615 122.99-52.407l0.695-0.695c11.264-12.215 85.138-92.562 85.138-92.562l53.504-58.185 137.472 149.541c33.353 34.999 77.678 54.272 124.782 54.272zM774.29 803.62c-69.486 0-132.279-29.477-177.408-76.873l-0.037 0.11-84.846-92.379c0 0-86.162 93.696-86.784 94.354l-0.585 0.658-0.037-0.073c-44.946 45.861-106.679 74.203-174.885 74.203-137.435 0-248.869-114.981-248.869-256.841 0-76.434 32.512-144.859 83.858-191.89l427.557-428.946 427.081 428.946c51.31 47.067 83.858 115.493 83.858 191.89-0.037 141.824-111.433 256.841-248.905 256.841v0z" />
<glyph unicode="&#xe606;" glyph-name="icon-star" data-tags="icon2-29" d="M512 877.714l-158.208-337.079-353.792-54.053 256-262.4-60.416-370.469 316.416 174.921 316.416-174.921-60.416 370.469 256 262.4-353.792 54.053-158.208 337.079z" />
<glyph unicode="&#xe607;" glyph-name="icon-star-empty" data-tags="icon-64" d="M512 705.17l108.581-231.351 251.648-38.437-182.382-186.917 5.961-36.425 36.169-221.842-219.977 121.6-220.014-121.6 36.169 221.842 5.961 36.425-182.345 186.917 251.648 38.437 16.567 35.328 92.014 196.023zM512 877.312l-158.208-337.079-353.792-54.053 256-262.363-60.416-370.505 316.416 174.921 316.416-174.921-60.416 370.505 256 262.363-353.792 54.053-158.208 337.079z" />
<glyph unicode="&#xe608;" glyph-name="icon-user" data-tags="icon2-38" horiz-adv-x="878" d="M237.861 278.418l199.022-262.656 189.038 258.889 45.678-17.115c63.927-99.803 100.864-241.81 119.113-330.642h-712.887c19.419 155.392 94.171 291.328 125.513 342.784l34.523 8.741zM599.552 362.605l-163.767-224.293-168.887 222.939-109.531-27.758c0-0.037-157.367-225.317-157.367-479.781h877.714c0 0-38.034 295.058-158.683 464.128l-119.479 44.763zM438.894 804.571c100.791 0 182.821-82.030 182.821-182.857s-82.030-182.857-182.821-182.857c-100.864 0-182.894 82.030-182.894 182.857s82.030 182.857 182.894 182.857zM438.894 877.714c-141.422 0-256.037-114.615-256.037-256s114.615-256 256.037-256c141.312 0 255.963 114.615 255.963 256s-114.651 256-255.963 256v0z" />
<glyph unicode="&#xe60a;" glyph-name="icon-th-large" data-tags="icon1-65" horiz-adv-x="952" d="M0 363.666h438.857v440.905h-438.857v-440.905zM73.143 731.428h292.571v-294.619h-292.571v294.619zM513.573 804.571v-440.905h438.857v440.905h-438.857zM879.323 436.809h-292.571v294.619h292.571v-294.619zM0-148.627h438.857v438.565h-438.857v-438.565zM73.143 216.795h292.571v-292.279h-292.571v292.279zM513.573-148.627h438.857v438.565h-438.857v-438.565zM586.715 216.795h292.571v-292.279h-292.571v292.279z" />
<glyph unicode="&#xe60b;" glyph-name="icon-th" data-tags="icon3-08" horiz-adv-x="951" d="M-0.805 366.007h438.857v440.905h-438.857v-440.905zM72.338 733.769h292.571v-294.619h-292.571v294.619zM512.805 806.912v-440.905h438.857v440.905h-438.857zM878.519 439.149h-292.571v294.619h292.571v-294.619zM-0.805-146.286h438.857v438.565h-438.857v-438.565zM72.338 219.136h292.571v-292.279h-292.571v292.279zM512.805-146.286h438.857v438.565h-438.857v-438.565zM585.947 219.136h292.571v-292.279h-292.571v292.279z" />
<glyph unicode="&#xe60d;" glyph-name="icon-check" data-tags="icon-53" d="M344.247-0.805l-345.49 345.49 51.712 51.712 293.778-293.778 633.929 633.966 51.749-51.712z" />
<glyph unicode="&#xe611;" glyph-name="icon-off" data-tags="icon1-99" horiz-adv-x="951" d="M731.429 731.538v-73.179h146.249v-731.392h-804.498v731.392h146.834v73.179h-220.014v-877.751h950.857v877.751zM438.857 877.714h73.143v-585.143h-73.143v585.143z" />
<glyph unicode="&#xe613;" glyph-name="icon-cog" data-tags="icon-22" d="M884.187 373.723l138.789 141.019-141.678 251.721-187.904-56.503-40.704 167.753h-280.978l-40.704-167.899-188.27 56.613-141.714-251.685 138.789-141.019-143.141-145.298 141.568-251.794 189.842 56.978 43.63-179.895h280.978l43.593 179.785 189.477-56.869 141.568 251.794-143.141 145.298zM850.688 63.524l-122.002 36.645c-31.122-25.344-66.853-45.093-105.618-58.295l-27.904-115.017h-165.925l-28.014 115.456c-38.473 13.275-73.911 32.951-104.814 58.149l-123.136-36.974-85.87 152.795 88.539 89.893c-3.401 19.383-5.486 39.205-5.486 59.538 0 25.088 2.889 49.481 8.009 73.033l-86.674 88.064 85.943 152.722 130.999-39.387c27.904 20.773 58.99 37.376 92.489 48.969l28.014 115.456h165.925l27.867-115.017c33.829-11.52 65.17-28.197 93.33-49.079l129.865 39.058 85.979-152.722-85.431-86.784c5.303-23.954 8.302-48.75 8.302-74.277 0-20.809-2.158-41.106-5.705-60.891l87.186-88.503-85.87-152.832zM512.768 620.909c-140.727 0-255.195-114.469-255.195-255.195s114.469-255.195 255.195-255.195 255.195 114.469 255.195 255.195-114.469 255.195-255.195 255.195zM512.768 183.661c-100.389 0-182.053 81.664-182.053 182.053s81.664 182.053 182.053 182.053 182.053-81.664 182.053-182.053-81.627-182.053-182.053-182.053z" />
<glyph unicode="&#xe614;" glyph-name="icon-trash" data-tags="icon1-40" horiz-adv-x="805" d="M658.286 658.359v219.355h-512v-219.355h-146.286v-73.143h73.143v-731.502h658.286v731.502h73.143v73.143h-146.286zM219.429 804.571h365.714v-146.213h-365.714v146.213zM659.2-74.021h-513.792v659.237h0.878v-0.073l512.878 0.073v-659.237zM217.856 511.963h73.143v-512h-73.143v512zM365.714 511.963h73.143v-512h-73.143v512zM512 511.963h73.143v-512h-73.143v512z" />
<glyph unicode="&#xe615;" glyph-name="icon-home" data-tags="icon1-41" d="M1024 364.653l-512 513.061-512-513.061 51.602-51.712 94.683 94.866v-554.094h731.429v554.094l94.683-94.866 51.602 51.712zM438.857-73.143v365.714h146.286v-365.714h-146.286zM804.571-73.143h-146.286v438.857h-292.571v-438.857h-146.286v554.24l292.571 293.193 292.571-293.193v-554.24z" />
<glyph unicode="&#xe617;" glyph-name="icon-time" data-tags="icon2-54" d="M512.073 294.107h-219.611v-73.143h292.754v439.040h-73.143zM512 841.143c-262.583 0-475.429-212.846-475.429-475.429s212.846-475.429 475.429-475.429 475.429 212.846 475.429 475.429c0 262.583-212.846 475.429-475.429 475.429zM512-36.572c-221.806 0-402.286 180.48-402.286 402.286s180.48 402.286 402.286 402.286 402.286-180.48 402.286-402.286c0-221.806-180.48-402.286-402.286-402.286z" />
<glyph unicode="&#xe618;" glyph-name="icon-download-alt" data-tags="icon1-37" horiz-adv-x="951" d="M658.981 657.773v-73.143h218.734v-657.774h-804.571v657.774h220.014v73.143h-293.157v-804.059h950.857v804.059zM663.077 336.237l-51.712 51.712-100.462-100.462v590.226h-73.143v-590.226l-100.498 100.462-51.712-51.712 188.782-188.745z" />
<glyph unicode="&#xe619;" glyph-name="icon-download" data-tags="icon2-22" horiz-adv-x="951" d="M759.369 314.002l-51.712 51.712-193.353-193.39v559.287h-73.143v-559.287l-193.39 193.39-51.712-51.712 281.673-281.673zM0 877.714v-1024h950.857v1024h-950.857zM877.678-73.107h-804.498v877.641h804.498v-877.641z" />
<glyph unicode="&#xe61d;" glyph-name="icon-repeat" data-tags="icon2-09" d="M628.261 489.618l299.008-79.762 79.799 299.008-70.656 18.871-46.043-172.544c-71.717 139.337-216.795 234.679-384.293 234.679-238.775 0-432.347-193.573-432.347-432.347s193.573-432.347 432.347-432.347c161.792 0 302.555 89.015 376.722 220.562h-87.223c-65.426-89.161-170.642-147.419-289.463-147.419-198.071 0-359.205 161.134-359.205 359.205s161.134 359.205 359.205 359.205c142.885 0 266.094-84.078 323.803-205.202l-182.784 48.75-18.871-70.656z" />
<glyph unicode="&#xe61e;" glyph-name="icon-refresh" data-tags="icon-84" d="M516.352 743.204c152.869 0 284.27-91.538 343.515-222.501l-190.939 41.618-15.579-71.461 302.409-65.902 65.902 302.409-71.461 15.579-36.279-166.473c-75.739 142.446-225.28 239.872-397.568 239.872-219.246 0-402.213-157.477-442.258-365.202h74.898c38.875 167.095 188.635 292.059 367.36 292.059zM516.352-11.776c-152.869 0-284.27 91.538-343.515 222.501l190.939-41.618 15.579 71.461-302.373 65.902-65.902-302.409 71.461-15.579 36.279 166.437c75.739-142.446 225.28-239.872 397.568-239.872 219.246 0 402.213 157.477 442.258 365.202h-74.898c-38.875-167.058-188.672-292.023-367.397-292.023z" />
<glyph unicode="&#xe61f;" glyph-name="icon-list-alt" data-tags="icon1-59" d="M145.993 366.007h146.286v-73.143h-146.286v73.143zM364.837 366.007h512.585v-73.143h-512.585v73.143zM145.993 146.322h146.286v-73.143h-146.286v73.143zM364.837 146.322h512.585v-73.143h-512.585v73.143zM0 804.717v-950.857h1024v950.857h-1024zM950.857 731.575v-146.213h-877.714v146.213h877.714zM73.143-72.997v585.179h877.714v-585.179h-877.714z" />
<glyph unicode="&#xe620;" glyph-name="icon-lock" data-tags="icon1-51" horiz-adv-x="804" d="M658.962 438.857v185.663c0 139.631-114.696 253.194-255.68 253.194s-255.68-113.562-255.68-253.194v-185.663h-147.602v-585.106h804.37v585.106h-145.408zM220.727 624.52c0 99.303 81.9 180.069 182.556 180.069s182.556-80.766 182.556-180.069v-185.663h-365.111v185.663zM731.246-73.161h-658.121v438.894h658.121v-438.894z" />
<glyph unicode="&#xe621;" glyph-name="icon-flag" data-tags="icon1-36" horiz-adv-x="879" d="M717.751 708.973c-85.029 0-163.95 44.946-163.95 44.946s-82.578 51.017-208.128 51.017c-176.859-0.037-345.673-102.034-345.673-102.034v-849.189h73.143v316.087c65.682 29.221 167.534 65.097 272.53 65.097 125.55 0 208.128-51.017 208.128-51.017s78.958-37.778 163.95-37.778c85.029 0 161.536 59.648 161.536 59.648v531.383c0 0-76.507-28.16-161.536-28.16zM806.144 245.833c-22.528-12.325-55.698-26.551-88.393-26.551-59.538 0-118.162 24.32-130.158 29.623-22.565 12.946-112.238 59.173-241.957 59.173-102.437 0-200.96-29.769-272.53-58.734v409.71c54.272 26.807 163.255 72.704 272.53 72.704 101.266 0 169.509-39.973 169.728-40.082l1.097-0.695 1.134-0.658c9.801-5.595 98.706-54.528 200.155-54.528 31.415 0 61.659 3.291 88.393 7.79v-397.751z" />
<glyph unicode="&#xe625;" glyph-name="icon-volume-up" data-tags="icon-90" d="M438.857 676.791v-619.886l-271.726 162.194h-95.159v291.438h88.942l277.943 166.254zM512 805.778l-371.273-222.098h-141.897v-437.723h148.151l365.019-217.893v877.714zM768.293 660.845l-61.257-41.179c61.586-70.619 99.218-162.67 99.218-263.497 0-94.391-32.914-181.102-87.625-249.746l60.672-40.814c62.464 80.421 100.096 181.065 100.096 290.56 0 115.895-41.838 222.135-111.104 304.677v0zM645.851 578.487l-61.513-41.399c47.25-45.934 76.727-110.007 76.727-180.955 0-64.439-24.43-123.099-64.293-167.79l61.221-41.179c47.47 56.613 76.178 129.463 76.178 208.969 0.037 86.016-33.719 164.096-88.32 222.354v0zM887.845 748.178l-60.672-40.814c78.702-95.634 126.062-218.002 126.062-351.232 0-126.83-43.337-243.456-115.31-336.896l60.672-40.814c79.835 105.179 127.781 235.776 127.781 377.71 0 148.37-52.041 284.599-138.533 392.046v0z" />
<glyph unicode="&#xe626;" glyph-name="icon-qrcode" data-tags="icon2-32" d="M73.143 365.714h365.714v365.714h-365.714v-365.714zM146.286 658.285h219.429v-219.429h-219.429v219.429zM219.429 585.143h73.143v-73.143h-73.143v73.143zM512 731.428v-365.714h365.714v365.714h-365.714zM804.571 438.857h-219.429v219.429h219.429v-219.429zM658.286 585.143h73.143v-73.143h-73.143v73.143zM73.143-73.143h365.714v365.714h-365.714v-365.714zM146.286 219.428h219.429v-219.429h-219.429v219.429zM219.429 146.285h73.143v-73.143h-73.143v73.143zM512-73.143h365.714v365.714h-365.714v-365.714zM585.143 219.428h219.429v-219.429h-219.429v219.429zM658.286 146.285h73.143v-73.143h-73.143v73.143z" />
<glyph unicode="&#xe629;" glyph-name="icon-tags" data-tags="icon1-48" d="M436.699 854.93l-362.862-51.273-51.273-362.862 587.337-587.081 414.098 414.098-587.301 587.118zM609.865-42.862l-509.769 509.586 38.473 272.201 272.238 38.473 509.769-509.586-310.711-310.674zM364.581 586.167c0-40.335-32.698-73.033-73.033-73.033s-73.033 32.698-73.033 73.033c0 40.335 32.698 73.033 73.033 73.033s73.033-32.698 73.033-73.033z" />
<glyph unicode="&#xe62b;" glyph-name="icon-bookmark" data-tags="icon-15" d="M147.127 877.714h730.99v-73.143h-730.99v73.143zM147.127 731.428v-877.714h86.821l279.589 386.304 278.418-386.304h86.821v877.714h-731.648zM805.632-39.717l-292.096 405.431-293.266-405.431v698.002h585.326v-698.002z" />
<glyph unicode="&#xe62c;" glyph-name="icon-print" data-tags="icon-94" d="M878.738 585.581v146.871l-219.246 145.262h-512.622v-292.133h-146.871v-512h146.871v-219.867h731.173v219.867h145.957v512h-145.262zM220.014 804.571h417.463l168.119-111.397v-107.52h-585.582v218.917zM804.901-73.143h-584.887v219.867h584.887v-219.867zM950.857 146.724h-72.85v73.143h-731.136v-73.143h-73.728v365.714h877.714v-365.714zM732.635 439.296h146.103v-73.582h-146.103v73.582z" />
<glyph unicode="&#xe633;" glyph-name="icon-align-left" data-tags="icon-16" d="M0 731.392h658.761v-73.143h-658.761v73.143zM0 511.817h878.775v-73.143h-878.775v73.143zM0 291.949h806.181v-73.143h-806.181v73.143zM0 73.106h1024v-73.143h-1024v73.143z" />
<glyph unicode="&#xe636;" glyph-name="icon-align-justify" data-tags="icon-17" d="M0 731.392h1024v-73.143h-1024v73.143zM0 511.817h1024v-73.143h-1024v73.143zM0 291.949h1022.793v-73.143h-1022.793v73.143zM0 73.106h1024v-73.143h-1024v73.143z" />
<glyph unicode="&#xe637;" glyph-name="icon-list" data-tags="icon1-46" horiz-adv-x="878" d="M-0.293 731.538h146.871v-73.143h-146.871v73.143zM219.136 731.538h658.871v-73.143h-658.871v73.143zM-0.293 512.109h146.871v-73.143h-146.871v73.143zM219.136 512.109h658.871v-73.143h-658.871v73.143zM-0.293 292.461h146.871v-73.143h-146.871v73.143zM219.136 292.461h658.871v-73.143h-658.871v73.143zM-0.293 73.033h146.871v-73.143h-146.871v73.143zM219.136 73.033h658.871v-73.143h-658.871v73.143z" />
<glyph unicode="&#xe63c;" glyph-name="icon-pencil" data-tags="icon2-01" d="M965.047 809.143c-27.575 27.538-64.11 42.679-102.949 42.679-38.473 0-74.569-14.921-101.669-42.021l-636.562-636.562-115.895-272.75 49.993-50.066 272.786 115.931 636.526 636.562c56.21 56.21 55.918 148.005-2.231 206.226zM206.446 152.393l524.873 524.873 103.461-103.461-524.873-524.873-103.461 103.461zM167.205 88.21l78.519-78.519-136.558-58.039 58.039 136.558zM915.566 654.628l-29.111-29.111-103.461 103.461 29.111 29.111c26.843 26.843 72.485 28.014 102.766-2.231 28.087-28.123 28.416-73.545 0.695-101.23z" />
<glyph unicode="&#xe63d;" glyph-name="icon-add" data-tags="icon-10" d="M512 690.797c-94.098 0-170.642-76.544-170.642-170.679s76.544-170.679 170.642-170.679 170.679 76.544 170.679 170.679-76.581 170.679-170.679 170.679zM512 422.619c-53.76 0-97.499 43.739-97.499 97.536s43.739 97.499 97.499 97.499c53.797 0 97.536-43.739 97.536-97.536s-43.739-97.499-97.536-97.499zM512 877.714c-201.984 0-365.751-160.11-365.751-357.595 0-74.533 23.406-143.653 63.305-200.923l302.446-465.481 306.103 471.589c37.449 56.101 59.611 122.843 59.611 194.816 0.037 197.486-163.73 357.595-365.714 357.595zM756.773 365.129l-244.809-377.125-241.079 371.054c-0.439 0.658-0.878 1.317-1.317 1.938-32.841 47.141-50.176 102.181-50.176 159.122 0 156.855 131.255 284.453 292.608 284.453s292.608-127.598 292.608-284.453c0-54.491-16.384-107.813-47.835-154.99z" />
<glyph unicode="&#xe640;" glyph-name="icon-edit" data-tags="icon2-02" d="M149.175 47.725l54.089-54.089 188.562 37.705 630.089 630.418-204.946 204.946-630.089-630.455-37.705-188.526zM254.281 200.192l562.688 563.054 101.486-101.486-562.688-563.017-126.866-25.381 25.381 126.83zM877.531-73.143h-804.389v804.571h296.192v73.143h-369.335v-950.857h950.674v438.235h-73.143z" />
<glyph unicode="&#xe642;" glyph-name="icon-checked" data-tags="icon2-51" horiz-adv-x="951" d="M877.678 146.688v-146.651h-804.498v731.355h731.392v73.179h-804.571v-877.714h950.857v292.571h-73.179zM441.856 146.834l-240.933 241.189 51.749 51.675 189.221-189.403 423.387 423.424 51.712-51.749z" />
<glyph unicode="&#xe643;" glyph-name="icon-move" data-tags="icon1-77" horiz-adv-x="951" d="M769.938 583.204l-51.712-51.712 92.635-92.635h-298.862v298.862l92.635-92.635 51.712 51.712-180.919 180.919-180.919-180.919 51.712-51.712 92.635 92.635v-298.862h-298.862l92.635 92.635-51.712 51.712-180.919-180.919 180.919-180.919 51.712 51.712-92.635 92.635h298.862v-298.862l-92.635 92.635-51.712-51.712 180.919-180.919 180.919 180.919-51.712 51.712-92.635-92.635v298.862h298.862l-92.635-92.635 51.712-51.712 180.919 180.919z" />
<glyph unicode="&#xe644;" glyph-name="icon-step-backward" data-tags="icon1-62" horiz-adv-x="731" d="M658.761 3.73l-466.798 362.313 466.798 362.313v-724.626zM731.904-145.628v1023.342l-659.237-511.671 659.237-511.671zM-0.475 877.714h73.143v-1024h-73.143v1024z" />
<glyph unicode="&#xe647;" glyph-name="icon-play" data-tags="icon1-31" horiz-adv-x="732" d="M73.166 737.198l530.895-371.502-530.895-371.466v742.968zM0 877.714v-1024l731.664 512.018-731.664 511.982z" />
<glyph unicode="&#xe648;" glyph-name="icon-pause" data-tags="icon2-34" horiz-adv-x="439" d="M0 800.951h73.143v-877.714h-73.143v877.714zM365.714 800.951h73.143v-877.714h-73.143v877.714z" />
<glyph unicode="&#xe64c;" glyph-name="icon-step-forward" data-tags="icon1-61" horiz-adv-x="731" d="M73.911 727.698l466.798-362.313-466.798-362.313v724.626zM0.768 877.056v-1023.342l659.237 511.671-659.237 511.671zM660.005 877.714h73.143v-1024h-73.143v1024z" />
<glyph unicode="&#xe64e;" glyph-name="icon-chevron-left" data-tags="icon1-02" horiz-adv-x="731" d="M582.327 874.642l51.712-51.712-457.216-457.216 457.216-457.216-51.712-51.712-508.928 508.928z" />
<glyph unicode="&#xe64f;" glyph-name="icon-chevron-right" data-tags="icon1-01" horiz-adv-x="731" d="M149.76-143.214l-51.712 51.712 457.216 457.216-457.216 457.216 51.712 51.712 508.928-508.928z" />
<glyph unicode="&#xe650;" glyph-name="icon-plus-sign" data-tags="icon2-40" d="M0 804.571v-950.857h1024v950.857h-1024zM950.857-73.143h-877.714v804.571h877.714v-804.571zM292.571 72.594h73.143v218.295h146.286v73.143h-146.286v219.429h-73.143v-219.429h-146.286v-73.143h146.286zM658.286 290.889h73.143v145.518h146.286v73.143h-146.286v145.518h-73.143v-145.518h-146.286v-73.143h146.286z" />
<glyph unicode="&#xe651;" glyph-name="icon-minus-sign" data-tags="icon1-56" horiz-adv-x="951" d="M146.176 438.674h658.286v-73.143h-658.286v73.143zM0 877.531v-1024h950.857v1024h-950.857zM877.678-73.289h-804.498v877.641h804.498v-877.641z" />
<glyph unicode="&#xe652;" glyph-name="icon-remove-sign" data-tags="icon-54" d="M303.067 107.154l208.933 208.933 208.933-208.933 51.712 51.712-208.933 208.933 208.933 208.933-51.712 51.712-208.933-208.933-208.933 208.933-51.712-51.712 208.933-208.933-208.933-208.933zM73.143 804.388v-877.714h877.714v877.714h-877.714zM877.678-0.147h-731.355v731.355h731.355v-731.355z" />
<glyph unicode="&#xe653;" glyph-name="icon-ok-sign" data-tags="icon-55" d="M828.782 551.789l-51.712 51.712-358.473-358.473-166.144 166.29-51.749-51.675 217.856-218.075zM75.886 804.388v-877.714h877.714v877.714h-877.714zM880.421-0.147h-731.355v731.355h731.355v-731.355z" />
<glyph unicode="&#xe654;" glyph-name="icon-question-sign" data-tags="icon-50" d="M512 585.472c56.064 0 101.669-45.056 101.669-100.462 0-37.303-20.736-71.314-51.858-87.735-3.986-1.755-98.67-44.434-98.67-141.824v-8.046h73.143v8.046c0 49.298 52.882 73.911 57.198 75.959 57.563 30.171 93.33 89.015 93.33 153.6 0 95.744-78.446 173.605-174.811 173.605-95.671 0-174.153-77.275-174.848-172.544v-1.061l73.143 0.768c0.439 55.003 46.043 99.694 101.705 99.694zM466.286 185.161h91.429v-91.429h-91.429v91.429zM73.143 804.571v-877.714h877.714v877.714h-877.714zM877.678 0.036h-731.355v731.355h731.355v-731.355z" />
<glyph unicode="&#xe655;" glyph-name="icon-info-sign" data-tags="icon-45" d="M548.206 603.538c0-30.297-24.56-54.857-54.857-54.857s-54.857 24.56-54.857 54.857c0 30.297 24.56 54.857 54.857 54.857s54.857-24.56 54.857-54.857zM636.562 146.541h-73.143v366.263h-146.286v-73.143h73.143v-293.12h-73.143v-73.143h219.429zM73.143 804.571v-877.714h877.714v877.714h-877.714zM877.678 0.036h-731.355v731.355h731.355v-731.355z" />
<glyph unicode="&#xe659;" glyph-name="icon-ban-circle" data-tags="icon2-41" horiz-adv-x="878" d="M0 804.571v-877.714h877.714v877.714h-877.714zM73.179 731.392h687.47l-687.47-684.8v684.8zM804.535 0.036h-674.45l674.45 671.817v-671.817z" />
<glyph unicode="&#xe65a;" glyph-name="icon-arrow-left" data-tags="icon1-06" horiz-adv-x="878" d="M388.242 13.97l51.712 51.712-300.069 300.032h737.938v73.143h-737.938l300.069 300.032-51.712 51.712-388.352-388.315z" />
<glyph unicode="&#xe65b;" glyph-name="icon-arrow-right" data-tags="icon1-05" horiz-adv-x="878" d="M489.691 790.601l-51.712-51.712 300.069-300.032h-737.938v-73.143h737.938l-300.069-300.032 51.712-51.712 388.352 388.315z" />
<glyph unicode="&#xe65c;" glyph-name="icon-arrow-up" data-tags="icon2-33" horiz-adv-x="805" d="M0 402.761l51.712-51.712 313.637 313.125v-737.938h73.143v737.938l314.368-314.551 51.712 51.712-402.651 402.834z" />
<glyph unicode="&#xe65d;" glyph-name="icon-arrow-down" data-tags="icon2-44" horiz-adv-x="805" d="M804.571 327.643l-51.712 51.712-313.637-313.125v737.938h-73.143v-737.938l-314.368 314.551-51.712-51.712 402.651-402.834z" />
<glyph unicode="&#xe661;" glyph-name="icon-sign-plus" data-tags="icon1-20" d="M950.601 438.857h-402.030v366.848h-73.143v-366.848h-402.286v-73.143h402.286v-438.857h73.143v438.857h402.030z" />
<glyph unicode="&#xe662;" glyph-name="icon-minus" data-tags="icon-19" d="M73.143 438.857h877.714v-73.143h-877.714v73.143z" />
<glyph unicode="&#xe663;" glyph-name="icon-plus" data-tags="icon1-57" horiz-adv-x="951" d="M0 804.571v-950.857h950.857v950.857h-950.857zM877.678-73.107h-804.498v804.498h804.498v-804.498zM438.747 0h73.143v294.656h219.392v73.143h-219.392v291.072h-73.143v-291.072h-219.429v-73.143h219.429z" />
<glyph unicode="&#xe668;" glyph-name="icon-eye-open" data-tags="icon-39" d="M512.402 695.954c-253.769 0-468.809-271.872-512-330.24 43.227-58.368 258.45-330.203 512-330.203 253.769 0 468.773 271.799 512 330.203-43.264 58.331-258.45 330.24-512 330.24zM512.402 108.068c-179.419 0-347.429 172.727-419.218 257.646 71.717 84.919 239.616 257.646 419.218 257.646 179.383 0 347.429-172.727 419.182-257.682-71.717-84.919-239.616-257.609-419.182-257.609zM512.402 548.571c-100.974 0-182.857-81.883-182.857-182.857s81.883-182.857 182.857-182.857c100.974 0 182.857 81.883 182.857 182.857s-81.883 182.857-182.857 182.857zM512.402 256c-60.489 0-109.714 49.225-109.714 109.714s49.225 109.714 109.714 109.714c60.489 0 109.714-49.225 109.714-109.714s-49.225-109.714-109.714-109.714z" />
<glyph unicode="&#xe669;" glyph-name="icon-eye-close" data-tags="icon-80" d="M327.131 365.714c0-16.75 3.218-32.658 7.79-48.018l67.511 67.511c8.009 38.875 39.497 69.742 80.201 80.201l72.155 72.155c-13.714 3.109-27.831 5.157-42.533 5.157-102.29-0.037-185.125-79.287-185.125-177.006zM541.842 266.057l-72.155-72.155c13.714-3.109 27.831-5.157 42.496-5.157 102.217 0 185.088 79.214 185.088 176.969 0 16.75-3.218 32.658-7.753 48.018l-67.511-67.511c-8.046-38.875-39.534-69.705-80.165-80.165zM181.065 163.876l51.675 51.712c-62.098 53.029-112.384 111.25-143.177 150.126 69.888 88.283 240.238 276.59 421.851 276.59 41.509 0 82.359-10.203 121.637-26.441l55.077 55.077c-55.369 26.734-114.871 43.959-176.713 43.959-254.062 0-469.358-287.451-512.585-349.184 22.016-31.415 88.722-121.161 182.235-201.838zM842.606 566.82l-51.675-51.675c61.733-52.846 111.726-110.775 142.373-149.467-69.851-88.283-240.201-276.553-421.851-276.553-41.106 0-81.591 10.021-120.539 26.002l-55.113-55.113c55.077-26.405 114.176-43.483 175.653-43.483 254.062 0 469.321 287.415 512.585 349.184-21.979 31.305-88.357 120.613-181.431 201.106zM113.753 18.997l745.12 745.12 51.719-51.719-745.12-745.12-51.719 51.719z" />
<glyph unicode="&#xe66c;" glyph-name="icon-calendar" data-tags="icon-92" d="M805.376 805.010v72.704h-73.143v-72.704h-438.455v72.704h-73.143v-72.704h-220.635v-951.296h1024v951.296h-218.624zM220.635 731.867v-73.911h73.143v73.911h438.491v-73.911h73.143v73.911h145.445v-147.054h-877.714v147.054h147.493zM73.143-73.143v584.814h877.714v-584.814h-877.714zM219.465 365.933h146.286v-73.143h-146.286v73.143zM438.857 365.933h146.286v-73.143h-146.286v73.143zM659.419 365.933h146.286v-73.143h-146.286v73.143zM219.465 144.201h146.286v-73.143h-146.286v73.143zM438.857 144.201h146.286v-73.143h-146.286v73.143zM659.419 144.201h146.286v-73.143h-146.286v73.143z" />
<glyph unicode="&#xe66d;" glyph-name="icon-random" data-tags="icon2-49" d="M783.141 506.002l-70.875 17.993 55.808 220.123-220.123 55.881 17.993 70.875 291.035-73.838zM565.943-138.606l-17.993 70.875 220.123 55.881-55.808 220.123 70.875 17.993 73.838-291.035zM782.738-61.477l-711.643 355.438v145.189l711.607 356.169 32.731-65.39-671.195-335.945v-54.821l671.159-335.214z" />
<glyph unicode="&#xe670;" glyph-name="icon-chevron-up" data-tags="icon-03" d="M158.318 195.62l-51.712 51.712 405.65 405.687 405.65-405.687-51.712-51.712-353.938 353.938z" />
<glyph unicode="&#xe671;" glyph-name="icon-chevron-down" data-tags="icon-04" d="M511.744 78.445l-405.65 405.65 51.712 51.712 353.938-353.938 353.938 353.938 51.712-51.712z" />
<glyph unicode="&#xe677;" glyph-name="icon-resize-h" data-tags="icon2-53" d="M788.553 168.375l-51.749 51.712 183.771 183.735-183.771 183.735 51.749 51.712 235.447-235.447zM235.447 168.375l-235.447 235.447 235.447 235.447 51.712-51.712-183.735-183.735 183.735-183.735zM94.866 440.393h850.688v-73.143h-850.688v73.143z" />
<glyph unicode="&#xe67a;" glyph-name="icon-key" data-tags="icon1-30" horiz-adv-x="658" d="M414.939 877.714h-171.593c-134.181 0-243.346-110.482-243.346-246.309v-4.242c0-123.575 100.571-226.194 219.502-243.712v-529.737l218.551 121.307v408.21c118.126 16.823 220.233 119.771 220.233 243.931v4.242c0 135.826-109.166 246.309-243.346 246.309zM586.021 627.163c0-95.488-87.662-173.166-184.101-173.166h-36.133v-443.319l-74.021-38.583v445.33l1.134 36.571h-39.351c-94.354 0-181.285 77.678-181.285 173.166v4.242c0 95.488 76.727 173.166 171.081 173.166h171.593c94.354 0 171.081-77.714 171.081-173.166v-4.242zM219.429 657.554h219.429v-73.143h-219.429v73.143z" />
<glyph unicode="&#xe67b;" glyph-name="icon-cogs" data-tags="icon2-27" d="M801.39 372.516l-110.336 197.559-146.322-44.361-31.671 131.694h-218.77l-31.707-131.767-146.578 44.434-110.336-197.559 108.069-110.665-111.47-114.030 110.226-197.632 147.822 44.727 33.975-141.202h218.77l33.938 141.129 147.529-44.654 110.226 197.632-111.47 114.030 108.105 110.665zM714.313 135.753l-54.93-98.487-73.655 22.272c-31.671-29.623-70.437-51.602-113.554-63.195l-16.75-69.486h-103.497l-16.53 68.791c-43.995 11.301-83.566 33.39-115.822 63.378l-71.899-21.76-54.93 98.487 50.066 51.237c-5.778 21.943-9.179 44.837-9.179 68.571 0 27.319 4.133 53.687 11.739 78.555l-49.225 50.432 55.003 98.45 73.765-22.345-4.169-7.461c32.037 29.477 71.168 51.163 114.651 62.318l16.53 68.791h103.497l16.713-69.522c44.471-11.959 84.407-34.889 116.59-65.975l-6.619 11.849 73.765 22.345 55.003-98.45-51.127-52.334c7.241-24.283 11.227-49.993 11.227-76.617 0-23.040-3.218-45.312-8.667-66.67l52.005-53.175zM402.322 463.725c-114.798 0-208.128-93.367-208.128-208.165s93.367-208.165 208.128-208.165 208.165 93.367 208.165 208.165-93.367 208.165-208.165 208.165zM402.322 120.539c-74.423 0-134.985 60.562-134.985 135.022s60.562 135.022 134.985 135.022c74.459 0 135.022-60.562 135.022-135.022s-60.562-135.022-135.022-135.022zM910.592 496.384l110.153 108.069-105.838 189.477-138.313-50.981-32.402 134.766h-209.847l-34.304-144.567v-1.134h74.496l17.445 72.558h94.574l20.187-83.895c32.951-9.911 62.793-26.843 88.064-48.933l86.747 31.963 48.128-86.162-62.135-60.965c5.742-20.48 9.033-41.984 9.033-64.329 0-19.858-2.706-39.058-7.278-57.527l63.159-59.831-48.311-86.601-1.609 0.549v-77.275l35.73-12.215 105.728 189.55-113.408 107.483z" />
<glyph unicode="&#xe67c;" glyph-name="icon-comments" data-tags="icon2-46" horiz-adv-x="1173" d="M441.673 877.714v-218.77h-441.673v-659.017h146.834v-146.213l218.661 146.213h438.857v293.925h3.035l220.087-147.237v147.237h145.627v583.863h-731.429zM731.209 73.069h-387.913l-123.319-82.469v82.469h-146.834v512.731h658.066v-512.731zM1099.959 366.994h-145.627v-83.456l-124.745 83.456h-25.234v291.95h-289.536v145.627h585.143v-437.577z" />
<glyph unicode="&#xe682;" glyph-name="icon-collapse-full" data-tags="icon-23" d="M364.581 560.164l-266.715 266.752-51.712-51.712 265.472-265.509h-239.616v-73.143h365.714v365.714h-73.143zM949.906 509.696h-239.616l265.472 265.509-51.712 51.712-266.715-266.752v242.103h-73.143v-365.714h365.714zM949.906 218.331v73.143h-365.714v-365.714h73.143v242.103l266.715-266.715 51.712 51.712-265.472 265.472zM72.009 218.331h239.616l-265.472-265.472 51.712-51.712 266.715 266.715v-242.103h73.143v365.714h-365.714z" />
<glyph unicode="&#xe688;" glyph-name="icon-upload-alt" data-tags="icon1-38" horiz-adv-x="951" d="M439.881 737.719v-591.36h73.143v591.36l100.462-100.498 51.712 51.712-188.745 188.782-188.745-188.782 51.712-51.712zM658.871 584.777v-73.143h218.843v-584.777h-804.571v584.777h220.562v73.143h-293.705v-731.063h950.857v731.063z" />
<glyph unicode="&#xe68b;" glyph-name="icon-check-empty" data-tags="icon-28" d="M804.864 658.651v-585.874h-586.642v585.874h586.642zM878.007 731.794h-732.928v-732.16h732.965v732.16h-0.037z" />
<glyph unicode="&#xe693;" glyph-name="icon-bullhorn" data-tags="icon-93" d="M338.030 657.956h-192.878v-584.375h202.679l528.75-219.867v1022.245l-538.551-218.002zM218.295 584.813h73.728v-438.089h-73.728v438.089zM803.438-36.645l-438.272 182.235v444.453l0.293 0.11 437.979 177.298v-804.096z" />
<glyph unicode="&#xe694;" glyph-name="icon-bell" data-tags="icon-09" d="M946.249 136.704c-22.967 66.121-178.578 445.586-178.578 445.586l-0.731-0.073c-25.161 77.531-111.287 136.887-218.368 148.151v147.346h-73.143v-147.383c-107.081-11.264-193.207-70.583-218.368-148.114l-0.731 0.073c0 0-155.611-379.465-178.578-445.586-21.102-60.745 37.998-63.232 47.726-63.232 0.841 0 1.317 0.037 1.317 0.037h165.778c11.849-121.015 105.728-215.589 219.429-215.589s207.543 94.574 219.392 215.589h165.778c0 0 0.475-0.037 1.317-0.037 9.765 0.037 68.864 2.487 47.762 63.232zM512-68.901c-70.4 0-129.426 56.466-144.091 131.767h288.183c-14.702-75.301-73.728-131.767-144.091-131.767zM512 146.651h-352.475c33.426 86.674 114.066 284.891 160.622 398.555 2.633 4.498 4.827 9.326 6.473 14.446 16.128 49.664 84.992 99.913 185.381 99.913s169.253-50.286 185.344-99.913c1.609-5.010 3.767-9.765 6.363-14.153 46.555-113.591 127.305-312.064 160.731-398.811h-352.439z" />
<glyph unicode="&#xe696;" glyph-name="icon-hand-right" data-tags="icon-81" d="M914.761 560.749h-259.767c-10.057 0-20.224-0.439-30.501-0.987 1.975 3.328 4.023 6.729 6.107 10.13 6.949 11.41 14.848 24.32 21.175 38.254 15.506 34.085 56.649 124.635 3.877 193.28-20.261 26.368-50.981 41.472-84.261 41.472-23.113 0-46.336-7.57-65.463-21.321-25.929-18.798-38.071-45.275-47.141-65.17-1.865-4.059-3.73-8.119-5.669-11.959-6.4-12.361-11.301-24.905-15.982-37.083-4.718-12.325-9.179-23.954-14.702-32.219-4.937-7.424-9.801-14.958-15.799-24.21-17.518-27.173-34.085-52.846-54.126-72.411l-4.315-4.279c-31.159-30.72-48.274-43.154-56.905-48.128v57.234h-292.571v-658.286h292.571v70.107c17.883-8.046 37.522-15.397 60.050-18.395 31.013-4.133 64.256-6.071 104.667-6.071 23.406 0 46.811 0.622 70.29 1.28 22.382 0.622 44.8 1.243 67.109 1.243 61.44 0 111.433 51.749 111.433 115.383 0 5.23-0.329 10.386-1.024 15.506 36.791 18.907 61.806 58.185 61.806 103.424 0 8.814-0.951 17.518-2.853 26.002 27.831 21.358 45.385 55.625 45.385 92.891 0 2.597-0.037 5.413-0.183 8.411l106.789 0.622c60.014 0 108.837 50.542 108.837 112.64s-48.823 112.64-108.837 112.64zM218.149-1.792h-146.286v512h146.286v-512zM914.542 408.612l-155.758-0.878c-13.641-0.073-26.112-7.753-32.329-19.895s-5.157-26.734 2.779-37.888c3.584-5.047 5.815-10.715 5.815-23.515 0-19.090-11.703-35.913-28.453-40.85-10.935-3.218-19.749-11.374-23.808-22.053s-2.926-22.601 3.109-32.293c4.352-6.985 6.656-15.214 6.656-23.698 0-22.638-16.018-41.179-36.498-42.203-12.654-0.622-24.101-7.753-30.208-18.871s-6.071-24.576 0.146-35.621c3.767-6.656 5.742-14.373 5.742-22.235 0-23.296-17.189-42.24-38.29-42.24-23.003 0-46.043-0.622-69.157-1.28-22.747-0.622-45.495-1.243-68.242-1.243-37.083 0-67.255 1.719-95.013 5.413-20.187 2.67-39.168 11.995-59.282 21.797-3.218 1.573-6.949 2.414-10.423 3.657v375.845c32.658 3.474 67.145 31.049 108.215 71.57l4.206 4.133c25.893 25.234 44.617 54.309 65.499 86.711 4.645 7.241 9.326 14.482 14.080 21.614 10.021 15.031 16.165 31.049 22.126 46.555 3.73 9.728 7.534 19.822 12.654 29.733 2.487 4.827 4.827 9.911 7.461 15.616 6.693 14.592 12.946 28.343 23.223 35.803 15.689 11.264 37.742 9.106 48.859-5.413 17.993-23.406 14.153-59.941-12.471-118.491-4.791-10.606-11.045-20.626-16.969-30.391-13.019-21.321-26.478-43.374-29.806-69.522-1.829-14.373-0.585-25.637 3.767-34.414 7.095-14.373 22.784-22.382 38.473-19.895l3.145 0.512c11.52 0.11 23.333 0.805 35.072 1.499 12.142 0.731 24.283 1.463 36.169 1.463h259.767c19.675 0 35.694-17.701 35.694-39.497-0.037-21.833-16.055-39.534-35.95-39.534z" />
<glyph unicode="&#xe69f;" glyph-name="icon-wrench" data-tags="icon-70" d="M317.769 780.105c58.551 0 113.627-22.821 155.026-64.219 54.894-54.894 76.398-132.937 57.563-208.75l-9.984-40.119 383.269-383.269c30.245-30.245 30.245-79.433 0-109.678-14.629-14.665-34.121-22.711-54.821-22.711s-40.192 8.082-54.821 22.711l-383.269 383.269-40.119-9.984c-17.518-4.352-35.584-6.583-53.687-6.583-58.661 0-113.701 22.784-155.063 64.11-55.040 55.040-75.483 131.84-59.209 203.337l22.418-22.455 98.779-98.779 131.584 35.291 35.291 131.584-120.979 121.015c15.616 3.474 31.671 5.23 48.018 5.23zM317.769 853.248c-60.891 0-121.819-18.871-173.239-56.576l164.681-164.681-13.422-50.066-50.030-13.385-164.681 164.645c-84.041-114.651-74.569-276.37 29.038-380.014 57.125-57.125 131.95-85.541 206.775-85.541 23.954 0 47.945 2.926 71.314 8.741l354.048-354.048c29.44-29.44 67.986-44.142 106.569-44.142s77.129 14.702 106.569 44.142c58.843 58.843 58.843 154.258 0 213.102l-354.048 354.048c23.991 96.475-1.39 202.715-76.8 278.126-57.125 57.125-131.95 85.65-206.775 85.65v0z" />
<glyph unicode="&#xe6a0;" glyph-name="icon-tasks" data-tags="icon1-97" d="M950.857 219.867v365.239h-877.714v-365.239h-73.143v-366.153h1024v366.153h-73.143zM146.286 511.963h731.429v-292.096h-145.957v-116.517h-438.053v116.517h-147.419v292.096zM950.857-73.143h-877.714v219.867h147.419v-116.517h584.338v116.517h145.957v-219.867zM147.2 731.977h731.429v-73.253h-731.429v73.253zM220.928 877.714h584.009v-73.253h-584.009v73.253z" />
<glyph unicode="&#xe6a3;" glyph-name="icon-expand-full" data-tags="icon1-33" horiz-adv-x="878" d="M365.458 731.904v73.143h-365.239v-366.117h73.143v241.262l265.545-265.545 51.712 51.712-265.545 265.545zM512.256 805.047v-73.143h240.384l-265.545-265.545 51.712-51.712 265.545 265.545v-241.262h73.143v366.117zM804.352 51.529l-265.545 265.509-51.712-51.712 265.545-265.509h-240.384v-73.143h365.239v366.117h-73.143zM338.907 317.037l-265.545-265.509v241.262h-73.143v-366.117h365.239v73.143h-240.384l265.545 265.509z" />
<glyph unicode="&#xe6a4;" glyph-name="icon-group" data-tags="icon2-39" d="M566.93 291.84l-154.88-192.768-159.781 191.598-103.497-23.845c0-0.037-148.773-194.011-148.773-413.111h829.989c0 0-35.986 254.025-150.089 399.579l-112.969 38.546zM79.25-73.143c20.078 123.685 84.443 231.497 113.298 274.981l32.329 7.461 188.233-225.682 178.725 222.427 42.825-14.629c55.113-79.214 88.466-189.55 106.24-264.594h-661.65zM415.049 305.92c137.618 0 249.271 111.653 249.271 249.344s-111.653 249.344-249.271 249.344c-137.801 0-249.417-111.653-249.417-249.344s111.616-249.344 249.417-249.344zM415.049 731.501c97.134 0 176.128-79.031 176.128-176.201s-79.031-176.201-176.128-176.201c-97.207 0-176.274 79.067-176.274 176.201s79.067 176.201 176.274 176.201zM809.984 459.629c40.96 44.434 66.158 103.57 66.158 168.777 0 137.655-111.653 249.307-249.271 249.307-33.317 0-65.024-6.656-94.062-18.469l54.674-57.125 0.768-2.085c12.434 2.779 25.307 4.535 38.619 4.535 97.134 0 176.128-79.031 176.128-176.201 0-68.133-39.278-126.683-96-156.014 10.898-12.069 74.898-82.871 118.711-132.937 1.463-1.646 1.536-2.816 1.207-3.803 116.809-145.81 124.635-300.91 124.672-336.201h73.216c0.512 53.943-10.386 280.027-214.821 460.215z" />
<glyph unicode="&#xe6a5;" glyph-name="icon-link" data-tags="icon-68" d="M519.57 218.148c-2.414-33.719-15.872-66.779-41.582-92.489l-144.457-144.457c-27.502-27.502-64.11-42.679-103.022-42.679s-75.52 15.177-103.022 42.679c-56.795 56.795-56.795 149.248 0 206.043l144.457 144.457c25.015 25.015 57.637 39.131 92.562 41.655l66.67 66.67c-18.139 4.791-36.937 7.497-56.21 7.497-58.441 0-113.408-22.747-154.734-64.073l-144.457-144.457c-85.321-85.321-85.321-224.146 0-309.467 41.326-41.326 96.293-64.11 154.734-64.11s113.408 22.784 154.734 64.11l144.457 144.457c56.942 56.942 74.971 137.472 55.918 210.286l-66.048-66.121zM948.261 801.975c-41.326 41.326-96.293 64.11-154.734 64.11s-113.408-22.784-154.734-64.11l-144.457-144.457c-56.942-56.942-74.971-137.472-55.918-210.286l66.048 66.048c2.414 33.719 15.872 66.779 41.582 92.489l144.457 144.457c27.502 27.502 64.11 42.679 103.022 42.679s75.52-15.177 103.022-42.679c56.795-56.795 56.795-149.248 0-206.043l-144.457-144.457c-24.613-24.576-57.454-37.559-91.063-40.155l-68.133-68.133c18.139-4.791 36.937-7.497 56.21-7.497 58.441 0 113.408 22.747 154.734 64.073l144.457 144.457c85.285 85.358 85.285 224.183-0.037 309.504zM679.726 585.166l51.719-51.719-387.171-387.171-51.719 51.719 387.171 387.171z" />
<glyph unicode="&#xe6a6;" glyph-name="icon-cloud" data-tags="icon2-52" horiz-adv-x="1097" d="M438.053 732.123c91.392 0 171.959-57.783 200.521-143.799 7.899-23.771 27.429-41.874 51.712-47.909 5.851-1.463 11.776-2.158 17.701-2.158 18.578 0 36.718 7.095 50.469 20.224 13.385 12.763 30.793 19.785 49.006 19.785 38.985 0 70.729-31.232 70.729-69.669 0-13.239-3.95-26.222-11.41-37.632-13.129-19.968-15.653-45.093-6.766-67.291 8.85-22.199 28.014-38.656 51.273-44.069 66.341-15.543 112.713-73.435 112.713-140.873 0-79.909-65.719-144.896-146.505-144.896h-628.699c-96.841 0-175.653 77.97-175.653 173.824 0 71.717 43.666 135.131 111.25 161.536 32.146 12.581 51.163 45.934 45.531 79.982-2.085 12.654-3.072 23.698-3.072 33.829 0 115.31 94.757 209.115 211.2 209.115zM438.053 805.266c-157.038 0-284.343-126.354-284.343-282.258 0-15.579 1.609-30.793 4.059-45.714-92.343-36.059-157.769-125.147-157.769-229.632 0-136.375 111.397-246.967 248.795-246.967h628.699c121.307 0 219.648 97.609 219.648 218.039 0 103.168-72.265 189.403-169.253 212.041 14.702 22.382 23.442 49.042 23.442 77.751 0 78.885-64.402 142.811-143.872 142.811-38.693 0-73.618-15.323-99.474-39.973-37.376 112.567-144.018 193.902-269.934 193.902v0z" />
<glyph unicode="&#xe6a9;" glyph-name="icon-copy" data-tags="icon-89" d="M658.213 438.967v0.512l-292.059 292.023h-366.153v-877.787h658.213v585.253zM365.751 641.243l195.218-202.386-195.291-0.475 0.073 202.862zM585.070-72.521h-511.927v728.759h219.355v-290.523h292.571v-438.235zM1024 586.605l-286.574 291.109h-76.251l-14.007-12.434 343.771-349.221 33.061 29.33zM731.282 584.887v292.827h-292.718v-145.481l73.143-73.143v145.481h146.432v-291.913l0.073-0.073v-0.914l292.645 0.293v-438.747h-219.502v-73.143h292.645v585.143z" />
<glyph unicode="&#xe6aa;" glyph-name="icon-paper-clip" data-tags="icon-63" d="M677.815-83.31c-78.153 0-151.625 30.427-206.885 85.687l-383.342 383.305c-85.541 85.541-85.541 224.768 0 310.309 85.541 85.577 224.768 85.577 310.309 0l383.342-383.305c57.051-57.051 57.051-149.87 0-206.885-55.259-55.296-151.625-55.296-206.885 0l-287.451 287.451 51.712 51.712 287.451-287.451c27.648-27.648 75.813-27.648 103.461 0 28.526 28.526 28.489 74.935 0 103.461l-383.305 383.342c-57.051 57.051-149.87 57.051-206.885 0s-57.051-149.87 0-206.885l383.305-383.305c41.435-41.435 96.549-64.256 155.173-64.256s113.701 22.821 155.173 64.256 64.256 96.549 64.256 155.173c0 58.624-22.821 113.701-64.256 155.173l-290.67 290.706 51.712 51.712 290.67-290.706c55.259-55.259 85.687-128.731 85.687-206.885s-30.427-151.625-85.687-206.885c-55.259-55.296-128.731-85.723-206.885-85.723z" />
<glyph unicode="&#xe6ad;" glyph-name="icon-bars" data-tags="icon1-60" horiz-adv-x="878" d="M0 731.538h877.714v-73.143h-877.714v73.143zM0 438.857h877.714v-73.143h-877.714v73.143zM0 146.285h877.714v-73.143h-877.714v73.143z" />
<glyph unicode="&#xe6ae;" glyph-name="icon-list-ul" data-tags="icon1-58" horiz-adv-x="878" d="M0 731.319h146.286v-73.143h-146.286v73.143zM219.429 731.319h658.286v-73.143h-658.286v73.143zM0 144.786h146.286v-73.143h-146.286v73.143zM219.429 144.786h658.286v-73.143h-658.286v73.143zM0 438.637h146.286v-73.143h-146.286v73.143zM219.429 438.637h658.286v-73.143h-658.286v73.143z" />
<glyph unicode="&#xe6b2;" glyph-name="icon-table" data-tags="icon1-66" horiz-adv-x="1170" d="M0 877.714v-1024h1170.286v1024h-1170.286zM1097.143 804.571v-221.915h-1024v221.915h1024zM438.491 145.883v146.688h293.23v-146.688h-293.23zM731.721 72.74v-145.883h-293.23v145.883h293.23zM731.721 509.513v-143.799h-293.23v143.799h293.23zM365.349 365.714h-292.206v143.799h292.206v-143.799zM365.349 292.571v-146.688h-292.206v146.688h292.206zM804.864 292.571h292.279v-146.688h-292.279v146.688zM804.864 365.714v143.799h292.279v-143.799h-292.279zM73.143 72.74h292.206v-145.883h-292.206v145.883zM804.864-73.143v145.883h292.279v-145.883h-292.279z" />
<glyph unicode="&#xe6b3;" glyph-name="icon-magic" data-tags="icon2-43" d="M582.437 591.506l-571.941-571.977 155.173-155.173 571.941 571.941-155.173 155.209zM113.92 19.529l468.517 468.517 51.712-51.712-468.517-468.517-51.712 51.712zM880.392 786.134l51.771-51.771-155.158-155.158-51.771 51.771 155.158 155.158zM840.953 126.002l-155.158 155.158 51.771 51.771 155.158-155.158-51.771-51.771zM804.571 472.978h219.429v-73.216h-219.429v73.216zM324.077 746.459l155.158-155.158-51.771-51.771-155.158 155.158 51.771 51.771zM546.048 877.714h73.216v-219.429h-73.216v219.429z" />
<glyph unicode="&#xe6b8;" glyph-name="icon-caret-down" data-tags="icon2-20" d="M294.034 438.272l217.966-217.71 217.966 217.71z" />
<glyph unicode="&#xe6b9;" glyph-name="icon-caret-up" data-tags="icon2-19" d="M729.966 293.705l-217.966 217.71-217.966-217.71z" />
<glyph unicode="&#xe6ba;" glyph-name="icon-caret-left" data-tags="icon2-18" d="M584.046 583.168l-217.71-217.966 217.71-217.929z" />
<glyph unicode="&#xe6bb;" glyph-name="icon-caret-right" data-tags="icon2-17" d="M438.345 147.273l217.71 217.929-217.71 217.966z" />
<glyph unicode="&#xe6bd;" glyph-name="icon-double" data-tags="icon2-10" d="M294.034 292.169l217.966-217.71 217.966 217.71zM729.966 439.625l-217.966 217.71-217.966-217.71z" />
<glyph unicode="&#xe6c4;" glyph-name="icon-comment-alt" data-tags="icon2-47" d="M952.21 731.428v-585.143h-462.373l-196.206-146.615v146.615h-219.136v585.143h877.714zM1025.353 804.571h-1024v-731.429h219.136v-219.429l293.669 219.429h511.195v731.429z" />
<glyph unicode="&#xe6c5;" glyph-name="icon-comments-alt" data-tags="icon2-45" d="M0 804.571v-731.429h219.136v-219.429l293.669 219.429h511.195v731.429h-1024zM950.857 146.285h-462.373l-196.206-146.615v146.615h-219.136v585.143h877.714v-585.143zM218.843 369.92h586.313v-73.143h-586.313v73.143zM218.843 583.241h586.313v-73.143h-586.313v73.143z" />
<glyph unicode="&#xe6c7;" glyph-name="icon-sitemap" data-tags="icon1-76" d="M881.737 438.784v365.787h-734.354v-365.787h-147.383v-511.927h438.857v511.927h-218.331v292.645h588.069v-292.645h-223.451v-511.927h438.857v511.927h-142.263zM365.714 0h-292.571v365.641h292.571v-365.641zM950.857 0h-292.571v365.641h292.571v-365.641z" />
<glyph unicode="&#xe6ca;" glyph-name="icon-lightbulb" data-tags="icon1-98" d="M513.097 877.714c-2.085 0-4.169 0-6.29-0.037-191.525-3.035-353.573-157.44-360.411-343.589-3.84-102.327 36.864-195.291 104.558-262.327 64.073-63.488 104.85-145.737 104.85-234.715v-25.746l78.446-157.586h157.623l78.446 157.623v26.039c0 87.186 37.632 169.509 101.303 230.985 66.889 64.439 108.361 153.746 108.361 252.635 0 197.010-164.279 356.718-366.885 356.718zM546.56-73.143h-66.999l-42.057 84.48h151.077l-42.021-84.48zM720.786 320.951c-66.633-64.329-108.069-145.262-119.954-231.936h-175.835c-12.325 85.541-54.674 167.424-122.587 234.715-56.43 55.845-85.87 129.573-82.944 207.653 5.449 148.151 134.875 270.702 288.512 273.115l5.12 0.073c161.975 0 293.742-127.232 293.742-283.611 0-75.52-30.537-146.542-86.053-200.009zM337.006 510.171h73.143c0 55.954 45.495 101.449 101.449 101.449v73.143c-96.256 0-174.592-78.299-174.592-174.592z" />
<glyph unicode="&#xe6d4;" glyph-name="icon-file-text-o" data-tags="icon3-09" horiz-adv-x="732" d="M146.432 365.714h438.857v-73.143h-438.857v73.143zM146.432 146.285h438.857v-73.143h-438.857v73.143zM730.514 512.036l-291.328 365.678h-439.186v-1024h731.758v658.359l-1.243-0.037zM438.674 760.978l198.473-249.125-198.473-0.402v249.527zM658.615-73.143h-585.472v877.714h292.389v-366.373l293.083 0.585v-511.927z" />
<glyph unicode="&#xe6d5;" glyph-name="icon-building" data-tags="icon2-36" horiz-adv-x="878" d="M512 584.009v219.429h-512v-877.714h877.714v658.286h-365.714zM219.429-1.134v73.143h73.143v-73.143h-73.143zM438.857-1.134h-73.143v146.286h-219.429v-146.286h-73.143v731.429h365.714v-731.429zM621.714-1.134v73.143h73.143v-73.143h-73.143zM804.571-1.134h-36.571v146.286h-219.429v-146.286h-36.571v512h292.571v-512zM146.286 657.92h73.143v-439.625h-73.143v439.625zM292.571 657.92h73.143v-439.625h-73.143v439.625zM585.143 291.437h146.286v-73.143h-146.286v73.143zM585.143 437.723h146.286v-73.143h-146.286v73.143z" />
<glyph unicode="&#xe6dc;" glyph-name="icon-double-angle-left" data-tags="icon-27" d="M534.528 680.119l-51.712 51.712-367.799-367.835 367.799-367.835 51.712 51.712-316.087 316.123zM822.235 680.119l-51.712 51.712-367.872-367.835 367.872-367.835 51.712 51.712-316.16 316.123z" />
<glyph unicode="&#xe6dd;" glyph-name="icon-double-angle-right" data-tags="icon-26" d="M542.208 735.268l-51.712-51.712 316.16-316.123-316.16-316.16 51.712-51.712 367.872 367.872zM254.574 735.268l-51.712-51.712 316.087-316.123-316.087-316.16 51.712-51.712 367.799 367.872z" />
<glyph unicode="&#xe6de;" glyph-name="icon-double-angle-up" data-tags="icon-25" d="M511.122 660.845l316.16-316.123 51.712 51.712-367.872 367.872-367.835-367.872 51.712-51.712zM143.287 108.763l51.712-51.712 316.123 316.123 316.16-316.123 51.712 51.712-367.872 367.835z" />
<glyph unicode="&#xe6df;" glyph-name="icon-double-angle-down" data-tags="icon-24" d="M512 70.18l-316.123 316.16-51.712-51.712 367.835-367.872 367.835 367.872-51.712 51.712zM879.835 622.263l-51.712 51.712-316.123-316.123-316.123 316.123-51.712-51.712 367.835-367.835z" />
<glyph unicode="&#xe6e0;" glyph-name="icon-angle-left" data-tags="icon2-14" d="M571.685 141.202l-225.536 224.183 225.536 224.183 51.566-51.895-173.349-172.288 173.349-172.288z" />
<glyph unicode="&#xe6e1;" glyph-name="icon-angle-right" data-tags="icon2-13" d="M448.366 141.897l-51.566 51.858 173.349 172.288-173.349 172.288 51.566 51.858 225.536-224.146z" />
<glyph unicode="&#xe6e2;" glyph-name="icon-angle-up" data-tags="icon2-11" d="M683.959 287.085l-172.288 173.349-172.288-173.349-51.895 51.566 224.183 225.536 224.183-225.536z" />
<glyph unicode="&#xe6e3;" glyph-name="icon-angle-down" data-tags="icon2-12" d="M512.329 203.812l-224.146 225.499 51.895 51.602 172.251-173.349 172.288 173.349 51.858-51.602z" />
<glyph unicode="&#xe6e7;" glyph-name="icon-mobile" data-tags="icon-79" d="M219.721 877.714v-1024h584.558v1024h-584.558zM731.136 804.571v-70.217h-438.272v70.217h438.272zM731.136 661.211v-514.304h-438.272v514.304h438.272zM292.864-73.143v146.907h438.272v-146.907h-438.272zM474.843 38.327h74.35v-74.35h-74.35v74.35z" />
<glyph unicode="&#xe6eb;" glyph-name="icon-spinner" data-tags="icon2-28" d="M335.982 707.145c0-28.439-23.054-51.493-51.493-51.493s-51.493 23.054-51.493 51.493c0 28.439 23.054 51.493 51.493 51.493s51.493-23.054 51.493-51.493zM646.071 798.427c0-34.478-27.95-62.427-62.427-62.427s-62.427 27.95-62.427 62.427c0 34.478 27.95 62.427 62.427 62.427s62.427-27.95 62.427-62.427zM929.646 644.717c0-41.143-33.353-74.496-74.496-74.496s-74.496 33.353-74.496 74.496c0 41.143 33.353 74.496 74.496 74.496s74.496-33.353 74.496-74.496zM1022.83 339.821c0-45.587-36.955-82.542-82.542-82.542s-82.542 36.955-82.542 82.542c0 45.587 36.955 82.542 82.542 82.542s82.542-36.955 82.542-82.542zM882.505 67.145c0-51.949-42.113-94.062-94.062-94.062s-94.062 42.113-94.062 94.062c0 51.949 42.113 94.062 94.062 94.062s94.062-42.113 94.062-94.062zM594.249-20.297c0-59.563-48.286-107.849-107.849-107.849s-107.849 48.286-107.849 107.849c0 59.563 48.286 107.849 107.849 107.849s107.849-48.286 107.849-107.849zM332.507 135.021c0-63.704-51.642-115.346-115.346-115.346s-115.346 51.642-115.346 115.346c0 63.704 51.642 115.346 115.346 115.346s115.346-51.642 115.346-115.346zM256.366 435.712c0-70.793-57.389-128.183-128.183-128.183s-128.183 57.389-128.183 128.183c0 70.793 57.389 128.183 128.183 128.183s128.183-57.389 128.183-128.183z" />
<glyph unicode="&#xe6ec;" glyph-name="icon-circle" data-tags="icon2-31" d="M512 657.92c161.097 0 292.206-131.072 292.206-292.206s-131.072-292.206-292.206-292.206-292.206 131.109-292.206 292.206 131.109 292.206 292.206 292.206zM512 731.063c-201.765 0-365.349-163.547-365.349-365.349 0-201.765 163.547-365.349 365.349-365.349s365.349 163.547 365.349 365.349c0 201.765-163.584 365.349-365.349 365.349v0z" />
<glyph unicode="&#xe6ef;" glyph-name="icon-folder-close-alt" data-tags="icon1-42" horiz-adv-x="878" d="M292.901 658.285v-146.798h511.561v-438.345h-731.319v585.143h219.758zM366.043 731.428h-366.043v-731.429h877.641v584.631h-511.598v146.798z" />
<glyph unicode="&#xe6f0;" glyph-name="icon-folder-open-alt" data-tags="icon-44" d="M879.067 512.256v146.286h-512v146.286h-367.067v-806.107l73.143 254.427v478.537h220.782v-146.286h512v-73.143h-658.286l-147.639-513.536h879.067l144.933 513.536h-144.933zM202.715 439.113h724.663l-103.643-367.25h-726.601l105.582 367.25z" />
<glyph unicode="&#xe6f1;" glyph-name="icon-expand-alt" data-tags="icon2-35" horiz-adv-x="658" d="M292.315 219.428h73.143v144.896h147.273v73.143h-147.273v147.675h-73.143v-147.675h-145.298v-73.143h145.298zM-0.585 731.867v-658.286h658.871v658.286h-658.871zM585.106 146.761h-512.512v511.927h512.512v-511.927z" />
<glyph unicode="&#xe6f2;" glyph-name="icon-collapse-alt" data-tags="icon2-37" horiz-adv-x="658" d="M1.024 731.867v-658.286h658.871v658.286h-658.871zM586.752 146.761h-512.549v511.927h512.512v-511.927zM147.639 437.467h365.714v-73.143h-365.714v73.143z" />
<glyph unicode="&#xe6f3;" glyph-name="icon-smile" data-tags="icon2-24" horiz-adv-x="951" d="M0 804.571v-877.714h950.857v877.714h-950.857zM877.678 0.036h-804.498v731.355h804.498v-731.355zM219.721 584.557h146.798v-72.558h-146.798v72.558zM584.631 584.557h146.798v-72.558h-146.798v72.558zM607.561 143.981h-264.265l-129.609 113.371 48.128 55.040 108.946-95.269h209.335l108.946 95.269 48.165-55.040z" />
<glyph unicode="&#xe6f4;" glyph-name="icon-frown" data-tags="icon2-25" horiz-adv-x="951" d="M0 804.571v-877.714h950.857v877.714h-950.857zM877.678 0.036h-804.498v731.355h804.498v-731.355zM219.721 584.557h146.798v-72.558h-146.798v72.558zM584.631 584.557h146.798v-72.558h-146.798v72.558zM343.296 291.84h264.302l129.609-113.335-48.165-55.077-108.91 95.269h-209.371l-108.946-95.269-48.128 55.077z" />
<glyph unicode="&#xe6fa;" glyph-name="icon-terminal" data-tags="icon2-16" d="M145.152 72.631l-51.712 51.712 246.894 246.894-246.894 246.894 51.712 51.712 298.606-298.606zM438.894 145.773h512v-73.143h-512v73.143z" />
<glyph unicode="&#xe6fd;" glyph-name="icon-star-half-full" data-tags="icon2-30" d="M1024 486.583l-353.792 54.053-158.208 337.079-158.208-337.079-353.792-54.053 256-262.363-60.453-370.505 316.453 174.921 316.416-174.921-60.416 370.469 256 262.4zM547.401 92.635l-35.401 19.566v593.371l108.581-231.351 251.648-38.437-182.382-186.917 5.925-36.425 36.169-221.842-184.539 102.034z" />
<glyph unicode="&#xe700;" glyph-name="icon-code-fork" data-tags="icon-83" d="M329.765 73.143c40.338 0 73.143-32.805 73.143-73.143s-32.805-73.143-73.143-73.143-73.143 32.805-73.143 73.143 32.805 73.143 73.143 73.143zM329.765 146.285c-80.786 0-146.286-65.499-146.286-146.286s65.499-146.286 146.286-146.286 146.286 65.499 146.286 146.286c0 80.786-65.499 146.286-146.286 146.286v0zM329.765 804.571c40.338 0 73.143-32.805 73.143-73.143s-32.805-73.143-73.143-73.143-73.143 32.805-73.143 73.143 32.805 73.143 73.143 73.143zM329.765 877.714c-80.786 0-146.286-65.499-146.286-146.286s65.499-146.286 146.286-146.286 146.286 65.499 146.286 146.286c0 80.786-65.499 146.286-146.286 146.286v0zM694.345 804.571c40.338 0 73.143-32.805 73.143-73.143s-32.805-73.143-73.143-73.143-73.143 32.805-73.143 73.143 32.805 73.143 73.143 73.143zM694.345 877.714c-80.786 0-146.286-65.499-146.286-146.286s65.499-146.286 146.286-146.286 146.286 65.499 146.286 146.286c0 80.786-65.499 146.286-146.286 146.286v0zM293.193 611.108h73.143v-532.517h-73.143v532.517zM597.358 220.050h-285.477v73.143h285.477c33.317 0 60.416 27.099 60.416 60.416v255.525h73.143v-255.525c0-73.655-59.904-133.559-133.559-133.559z" />
<glyph unicode="&#xe701;" glyph-name="icon-unlink" data-tags="icon1-69" d="M439.625 730.916h-73.143v-218.478h-219.867v-73.143h293.010zM585.582 0.073h73.143v218.99h219.319v73.143h-292.462zM153.307 7.058c-56.795 56.795-56.795 149.211 0 206.043l152.649 152.613h-103.424l-100.901-100.901c-85.321-85.321-85.321-224.183 0-309.467 85.321-85.321 224.183-85.321 309.504 0l100.864 100.864v103.424l-152.649-152.649c-56.795-56.759-149.211-56.759-206.043 0.073zM922.405 776.119c-85.321 85.321-224.146 85.321-309.467 0l-100.937-100.937v-103.424l152.649 152.649c56.795 56.795 149.248 56.795 206.043 0 56.832-56.832 56.832-149.248 0-206.043l-152.649-152.649h103.424l100.901 100.901c85.358 85.321 85.358 224.183 0.037 309.504z" />
<glyph unicode="&#xe70e;" glyph-name="icon-rocket" data-tags="icon-78" d="M413.477-107.411c-16.603 16.603-21.431 41.289-12.361 62.903 27.794 65.938 21.467 143.067-15.909 204.983-9.911 1.28-19.346 2.779-28.599 4.608-22.089 4.315-40.594 22.601-45.129 44.91-1.865 9.326-3.401 18.834-4.645 28.782-61.367 36.791-140.142 43.337-205.056 16.091-21.614-8.96-46.226-4.169-62.757 12.251-16.713 16.713-21.541 41.435-12.434 63.049 16.823 40.155 40.887 75.995 71.424 106.496 67.877 67.84 163.401 103.095 260.023 97.097 27.904 57.6 65.134 109.824 110.811 155.538 105.655 105.728 246.638 166.363 386.816 166.363 31.269 0 62.281-3.035 92.197-9.033 22.162-4.352 40.667-22.747 45.093-45.202 33.024-165.303-27.282-348.891-157.367-478.976-45.605-45.605-97.792-82.761-155.465-110.665 6.327-96.475-29.001-192.037-97.207-260.096-30.318-30.391-66.194-54.418-106.642-71.424-7.058-2.962-14.555-4.498-22.272-4.498-15.031-0.037-29.842 6.107-40.521 16.823zM923.209 776.85c-22.016 3.767-44.654 5.669-67.474 5.669-120.905 0-243.054-52.809-335.104-144.933-45.531-45.495-81.371-98.414-106.533-157.257l-11.045-25.856-27.831 4.023c-83.054 12.032-167.314-15.47-225.463-73.582-15.067-15.031-28.123-31.781-38.985-49.993 84.297 22.053 179.456 5.778 251.685-45.129l13.861-9.801 1.499-16.896c0.914-10.13 2.048-19.456 3.511-28.233 9.033-1.499 18.395-2.67 28.343-3.547l16.859-1.536 9.728-13.824c51.712-73.435 67.803-166.766 45.093-251.538 18.286 10.898 34.999 23.918 49.92 38.875 59.319 59.246 86.126 141.349 73.618 225.353l-4.169 27.941 25.966 11.081c58.917 25.161 111.835 60.965 157.221 106.386 110.299 110.409 163.072 263.753 139.301 402.798zM815.031 593.079c0-41.769-33.861-75.63-75.63-75.63s-75.63 33.861-75.63 75.63c0 41.769 33.861 75.63 75.63 75.63s75.63-33.861 75.63-75.63zM141.129 3.584l-5.339 21.248c-41.326 164.608 125.879 293.010 133.010 298.386l44.105-58.331c-1.28-0.951-118.784-91.794-109.934-199.57 111.067-10.533 210.286 100.681 211.346 101.888l54.967-48.274c-5.815-6.619-144.165-161.499-306.907-120.613l-21.248 5.266z" />
<glyph unicode="&#xe70f;" glyph-name="icon-chevron-sign-left" data-tags="icon-12" d="M651.557 697.124l51.712-51.712-279.113-279.113 279.113-279.113-51.712-51.712-330.825 330.825zM877.678 731.977v-731.355h-731.355v731.355h731.355zM950.857 805.156h-877.714v-877.714h877.714v877.714z" />
<glyph unicode="&#xe710;" glyph-name="icon-chevron-sign-right" data-tags="icon-11" d="M372.443 34.889l-51.712 51.712 279.113 279.113-279.113 279.113 51.712 51.712 330.825-330.825zM877.678 731.392v-731.355h-731.355v731.355h731.355zM950.857 804.571h-877.714v-877.714h877.714v877.714z" />
<glyph unicode="&#xe711;" glyph-name="icon-chevron-sign-up" data-tags="icon-13" d="M842.825 255.927l-51.712-51.712-279.113 279.113-279.113-279.113-51.712 51.712 330.825 330.825zM877.678 731.977v-731.355h-731.355v731.355h731.355zM950.857 805.156h-877.714v-877.714h877.714v877.714z" />
<glyph unicode="&#xe712;" glyph-name="icon-chevron-sign-down" data-tags="icon-14" d="M181.175 476.635l51.712 51.712 279.113-279.113 279.113 279.113 51.712-51.712-330.825-330.825zM877.714 731.684v-730.77h-731.429v730.77h731.429zM950.857 804.827h-877.714v-877.056h877.714v877.056z" />
<glyph unicode="&#xe718;" glyph-name="icon-ellipsis-v" data-tags="icon2-21" d="M437.394 729.892h146.286v-146.286h-146.286v146.286zM437.394 438.857h146.286v-146.286h-146.286v146.286zM437.394 145.152h146.286v-146.286h-146.286v146.286z" />
<glyph unicode="&#xe71e;" glyph-name="icon-level-up" data-tags="icon2-03" horiz-adv-x="951" d="M857.271 388.973l-381.842 381.842-381.842-381.842-51.712 51.712 433.554 433.554 433.554-433.554zM512-73.911h-512v73.143h438.857v774.656h73.143z" />
<glyph unicode="&#xe72b;" glyph-name="icon-file" data-tags="icon1-34" horiz-adv-x="732" d="M730.514 512.036l-291.328 365.678h-439.186v-1024h731.758v658.359l-1.243-0.037zM438.674 760.978l198.473-249.125-198.473-0.402v249.527zM658.615-73.143h-585.472v877.714h292.389v-366.373l293.083 0.585v-511.927z" />
<glyph unicode="&#xe72d;" glyph-name="icon-file-text" data-tags="icon1-35" horiz-adv-x="732" d="M146.432 365.714h438.857v-73.143h-438.857v73.143zM146.432 146.285h438.857v-73.143h-438.857v73.143zM730.514 512.036l-291.328 365.678h-439.186v-1024h731.758v658.359l-1.243-0.037zM438.674 760.978l198.473-249.125-198.473-0.402v249.527zM658.615-73.143h-585.472v877.714h292.389v-366.373l293.083 0.585v-511.927z" />
<glyph unicode="&#xe744;" glyph-name="icon-more" data-tags="icon2-50" horiz-adv-x="2267" d="M583.387 112.42h-73.143v423.863l-172.983-419.291h-91.794l-172.946 419.291v-423.863h-73.143v548.974h100.645l191.342-463.799 191.342 463.799h100.681zM1879.479 438.857h352.183v-73.143h-352.183v73.143zM933.303 587.812c110.921 0 201.143-90.222 201.143-201.143s-90.222-201.143-201.143-201.143-201.143 90.222-201.143 201.143 90.222 201.143 201.143 201.143zM933.303 660.955c-151.479 0-274.286-122.807-274.286-274.286s122.807-274.286 274.286-274.286 274.286 122.807 274.286 274.286c0 151.479-122.807 274.286-274.286 274.286v0zM1280.256 658.103h73.143v-548.571h-73.143v548.571zM1316.827 658.103h262.29v-73.143h-262.29v73.143zM1316.827 402.103h262.29v-73.143h-262.29v73.143zM1576.448 658.103v-73.143c50.395 0 91.429-41.033 91.429-91.429s-41.033-91.429-91.429-91.429v-73.143c90.88 0 164.571 73.691 164.571 164.571s-73.691 164.571-164.571 164.571zM1764.206 112.384l-238.994 272.274-54.967-48.274 196.645-224zM2268.050 112.384h-440.978v545.719h440.978v-73.143h-367.835v-399.433h367.835z" />
<glyph unicode="&#xe745;" glyph-name="icon-bug" data-tags="icon1-91" d="M806.181 219.172v73.911h218.624v73.143h-218.624v167.241l145.481 106.277v164.462h-73.143v-127.305l-113.554-82.981-105.874 210.286h-295.607l-102.656-210.578-113.957 83.237v127.342h-73.143v-164.462l147.31-107.63v-165.888h-220.233v-73.143h220.233v-73.911c0-6.546 0.585-12.983 0.987-19.419l-148.334-108.361v-164.462h73.143v127.305l91.538 66.853c40.448-113.115 148.224-194.158 275.237-194.158 126.61 0 234.094 80.567 274.834 193.097l90.075-65.792v-127.305h73.143v164.462l-146.542 107.045c0.475 6.875 1.061 13.751 1.061 20.736v0zM409.198 731.063h204.837l73.435-145.847h-349.367l71.095 145.847zM513.609 0.073c-120.869 0-219.282 98.341-219.429 219.099v292.901h438.857v-292.827c-0.146-120.869-98.56-219.173-219.429-219.173z" />
<glyph unicode="&#xe74b;" glyph-name="icon-branch" data-tags="icon3-10" horiz-adv-x="951" d="M293.705 438.967v-219.319h-219.429v219.319h219.429zM366.848 512.109h-365.714v-365.605h365.714v365.605zM876.581 804.571v-219.319h-219.429v219.319h219.429zM949.723 877.714h-365.714v-365.605h365.714v365.605zM876.581 146.176v-219.319h-219.429v219.319h219.429zM949.723 219.319h-365.714v-365.605h365.714v365.605zM629.211 56.941l-297.582 326.181v-95.342l297.582-326.181zM621.897 769.719l-0.146 0.146-290.121-389.449v-103.387l290.267 389.632z" />
<glyph unicode="&#xe750;" glyph-name="icon-chat-dot" data-tags="icon2-48" d="M950.857 731.428v-585.143h-462.373l-196.206-146.615v146.615h-219.136v585.143h877.714zM1024 804.571h-1024v-731.429h219.136v-219.429l293.669 219.429h511.195v731.429zM218.843 510.098h148.041v-73.143h-148.041v73.143zM438.674 510.098h148.041v-73.143h-148.041v73.143zM658.542 510.098h148.041v-73.143h-148.041v73.143z" />
<glyph unicode="&#xe751;" glyph-name="icon-cube" data-tags="icon1-29" horiz-adv-x="951" d="M475.429 877.714l-475.099-219.794v-584.96l475.099-208.567 475.099 208.384v585.143l-475.099 219.794zM832.402 631.954l-355.803-156.599-358.583 156.416 357.413 165.339 356.974-165.157zM73.472 571.428l366.629-159.927v-451.73l-366.629 160.914v450.743zM513.243-39.168v450.743l364.142 160.293v-451.328l-364.142-159.707z" />
<glyph unicode="&#xe769;" glyph-name="icon-stack" data-tags="icon2-05" d="M1024 548.388l-513.28 256-510.72-256 510.72-256 513.28 256zM510.793 722.615l349.33-174.226-349.33-174.226-347.575 174.226 347.575 174.226zM512 197.997l-430.629 213.87-81.371-40.777 512-254.72 512 254.72-81.371 40.777zM512 8.484l-430.629 213.906-81.371-40.777 512-254.72 512 254.72-81.371 40.777z" />
<glyph unicode="&#xe9b8;" glyph-name="icon-review" data-tags="icon2-42" horiz-adv-x="1097" d="M1096.887 365.714l-318.098 363.813-119.954-112.713 50.066-53.321 68.974 64.805 214.162-262.583h-370.066v-73.143h-146.286v73.143h-370.066l214.089 262.583 68.974-64.805 50.066 53.321-119.954 112.713-318.025-363.813h-0.512v-365.714h475.429v219.429h146.286v-219.429h475.429v365.714h-0.512zM402.542 73.143h-329.143v219.429h329.143v-219.429zM1024.256 73.143h-329.143v219.429h329.143v-219.429z" />
<glyph unicode="&#xf080;" glyph-name="icon-bar-chart" data-tags="icon-43" d="M219.721 439.661h73.143v-439.259h-73.143v439.259zM439.515 658.505h73.143v-658.139h-73.143v658.139zM658.505 512.219h73.143v-511.854h-73.143v511.854zM877.897 731.94h73.143v-731.538h-73.143v731.538zM74.496-73.143v878.226h-73.143v-951.369h1022.647v73.143z" />
<glyph unicode="&#xf1b3;" glyph-name="icon-cubes" data-tags="icon2-26" horiz-adv-x="1170" d="M0 598.528v-548.901l475.429-195.694 475.429 195.511v549.083l-475.429 206.263-475.429-206.263zM825.344 573.257l-348.745-143.945-351.451 143.799 350.281 151.954 349.915-151.808zM73.143 515.328l366.958-150.089v-417.646l-366.958 151.040v416.695zM513.243-51.42v416.731l364.471 150.418v-417.28l-364.471-149.87zM694.857 877.714l-90.295-39.168 336.274-147.273 156.306-67.803v-435.31l-1.39-0.585v-79.104l74.533 30.683v532.297z" />
<glyph unicode="&#xf1c1;" glyph-name="icon-file-pdf" data-tags="icon3-05" horiz-adv-x="805" d="M804.901 584.192l-292.718 291.73v1.646h-1.792l-0.293 0.293h-107.227l0.256-0.219-403.127 0.219v-1024.293h804.901v730.368h-0.256l0.256 0.256zM512.183 775.972l185.783-192.037h-185.783v192.037zM731.758-73.289h-658.615v877.97l365.897-0.219v-293.669h292.718v-584.082zM645.266 198.107c-27.026 13.093-60.050 18.761-136.009 10.167-40.667 14.007-97.682 80.311-115.529 147.822 4.645 33.829 8.667 86.93 6.034 114.615h-17.774c-1.207-13.422-5.376-29.257-7.68-40.594-2.487 23.077-3.328 62.793 3.255 63.89 3.547-3.474 4.827-9.582 4.754-16.933h18.944c1.792 8.082 2.267 16.128 1.499 23.077 0 0.037 0 0.073 0 0.073-0.329 8.375-8.85 46.19-28.16 45.019-15.287-1.719-23.479-19.090-27.904-37.888h-0.073c0.037 0 0.037-0.073 0.037-0.219-5.449-23.479-5.010-49.042-5.010-49.042v0c-0.549-27.136 2.414-63.122 15.909-101.998-10.606-68.608-109.824-239.762-109.824-239.762l-7.899 10.459c0 0-76.727-34.889-95.049-89.783-4.974-21.029 3.584-27.538 9.691-27.538 2.816-0.951 11.045-17.371 43.959-0.805 37.413 18.066 97.317 115.895 99.438 124.233 1.609 7.826 192.658 49.079 200.009 41.362 14.592-12.215 101.449-41.472 132.901-35.621 26.953 6.619 24.027 17.81 24.027 17.81s17.481 28.562-9.545 41.655zM178.359 32.365c-6.473 5.303 47.726 63.305 61.257 72.082-9.179-22.235-56.539-75.045-61.257-72.082zM315.136 161.975c25.198 43.959 46.043 90.185 62.61 137.033 20.48-42.679 46.738-74.715 75.008-97.792-45.714-8.448-93.403-21.541-137.618-39.241zM574.245 178.724c14.409 2.085 58.112-2.889 63.269-11.41-3.803-5.851-53.394 4.718-63.269 11.41z" />
<glyph unicode="&#xf1c2;" glyph-name="icon-file-word" data-tags="icon3-01" horiz-adv-x="805" d="M601.198 439.808l-76.398-293.413-87.113 293.157h-70.4l-87.113-293.157-76.471 293.413h-75.593l114.103-437.87h71.351l88.905 299.227 88.942-299.227h71.387l113.957 437.87zM804.901 584.192l-292.718 291.73v1.646h-1.792l-0.293 0.293h-107.227l0.256-0.219-403.127 0.219v-1024.293h804.901v730.368h-0.256l0.256 0.256zM512.183 775.972l185.783-192.037h-185.783v192.037zM731.758-73.289h-658.615v877.97l365.897-0.219v-293.669h292.718v-584.082z" />
<glyph unicode="&#xf1c3;" glyph-name="icon-file-excel" data-tags="icon3-02" horiz-adv-x="805" d="M261.376-0.512l380.416 440.32h-98.304l-380.379-440.32zM641.792-0.512l-380.416 440.32h-98.267l380.379-440.32zM804.901 584.192l-292.718 291.73v1.646h-1.792l-0.293 0.293h-107.227l0.256-0.219-403.127 0.219v-1024.293h804.901v730.368h-0.256l0.256 0.256zM512.183 775.972l185.783-192.037h-185.783v192.037zM731.758-73.289h-658.615v877.97l365.897-0.219v-293.669h292.718v-584.082z" />
<glyph unicode="&#xf1c4;" glyph-name="icon-file-powerpoint" data-tags="icon3-03" horiz-adv-x="805" d="M219.538 439.808h73.143v-440.357h-73.143v440.357zM475.026 366.665c40.814 0 74.021-33.207 74.021-74.021s-33.207-74.021-74.021-74.021h-182.345v148.041h182.345zM475.026 439.808h-255.488v-294.327h255.488c81.262 0 147.163 65.902 147.163 147.163s-65.902 147.163-147.163 147.163v0zM804.901 584.192l-292.718 291.73v1.646h-1.792l-0.293 0.293h-107.227l0.256-0.219-403.127 0.219v-1024.293h804.901v730.368h-0.256l0.256 0.256zM512.183 775.972l185.783-192.037h-185.783v192.037zM731.758-73.289h-658.615v877.97l365.897-0.219v-293.669h292.718v-584.082z" />
<glyph unicode="&#xf1c6;" glyph-name="icon-file-archive" data-tags="icon3-04" horiz-adv-x="805" d="M804.901 584.192l-292.718 291.73v1.646h-1.792l-0.293 0.293h-107.227l0.256-0.219-403.127 0.219v-1024.293h804.901v730.368h-0.256l0.256 0.256zM512.183 775.972l185.783-192.037h-185.783v192.037zM731.758-73.289h-658.615v877.97l365.897-0.219v-293.669h292.718v-584.082zM312.613 292.571l51.675-146.981v-47.506l-27.721-25.125h-90.075l-27.977 25.234v47.397l51.675 146.981h42.423zM364.434 365.714h-146.066l-73.033-207.653v-92.416l73.033-65.829h146.395l72.667 65.829v92.416l-72.997 207.653zM291.401 804.498h73.033v-73.289h-73.033v73.289zM291.401 658.212h73.033v-73.289h-73.033v73.289zM291.401 511.927h73.033v-73.289h-73.033v73.289zM218.368 731.245h73.033v-73.289h-73.033v73.289zM218.368 584.96h73.033v-73.289h-73.033v73.289zM218.368 438.674h73.033v-73.289h-73.033v73.289z" />
<glyph unicode="&#xf1c7;" glyph-name="icon-file-audio" data-tags="icon3-06" horiz-adv-x="805" d="M804.901 584.192l-292.718 291.73v1.646h-1.792l-0.293 0.293h-107.227l0.256-0.219-403.127 0.219v-1024.293h804.901v730.368h-0.256l0.256 0.256zM512.183 775.972l185.783-192.037h-185.783v192.037zM731.758-73.289h-658.615v877.97l365.897-0.219v-293.669h292.718v-584.082zM438.162 220.196c0-34.926-13.568-66.45-35.218-90.587l61.403-41.326c29.33 36.023 46.958 81.92 46.958 131.913 0 53.504-20.334 102.217-53.467 139.264l-61.55-41.399c25.71-24.795 41.874-59.429 41.874-97.865zM585.143 6.656c45.275 59.173 72.485 132.864 72.485 212.955 0 83.931-29.623 161.024-78.885 221.55l-61.038-41.070c41.545-48.677 66.779-111.653 66.779-180.48 0-64.987-22.565-124.709-60.014-172.142l60.672-40.814zM145.518 292.059v-146.322h73.143l117.321-73.362v293.339l-117.906-73.655z" />
<glyph unicode="&#xf1c8;" glyph-name="icon-file-movie" data-tags="icon3-07" horiz-adv-x="805" d="M804.901 584.192l-292.718 291.73v1.646h-1.792l-0.293 0.293h-107.227l0.256-0.219-403.127 0.219v-1024.293h804.901v730.368h-0.256l0.256 0.256zM512.183 775.972l185.783-192.037h-185.783v192.037zM731.758-73.289h-658.615v877.97l365.897-0.219v-293.669h292.718v-584.082zM146.286 365.714h293.705v-292.754h-293.705v292.754zM659.419 365.714v-292.754l-186.843 146.359z" />
<glyph unicode="&#xf1c9;" glyph-name="icon-file-code" data-tags="icon2-23" d="M738.194 219.575l-88.942-88.978 51.712-51.712 140.654 140.69-140.654 140.69-51.712-51.712zM364.8 219.575l88.978 88.978-51.712 51.712-140.69-140.69 140.69-140.69 51.712 51.712zM439.954 1.133h73.143l146.286 437.723h-73.143zM952.101 584.631l-292.718 291.73v1.682h-1.792l-0.293 0.293h-107.227l0.256-0.219-403.090 0.183v-1024.293h804.901v730.368h-0.256l0.219 0.256zM659.383 776.411l185.783-192.037h-185.783v192.037zM878.958-72.851h-658.578v877.97l365.861-0.219v-293.669h292.718v-584.082z" />
</font>
</defs>
</svg>
